Скачать через торрент Монстры на каникулах 3: Море зовёт Hotel Transylvania 3: Summer Vacation Фильм бесплатно в хорошем качестве torrent

Скачивайте на UnionPeer.org фильмы через торрент без регистрации. Новинки кино в хорошем качестве через торрент. На UnionPeer.org можно скачать через торрент фильмы 2014 и 2015 годов. Самые новые фильмы.

Скачать торрент Монстры на каникулах 3: Море зовёт Hotel Transylvania 3: Summer Vacation бесплатно через .torrent фильм мультфильм сериал

Статистика раздачи
Размер:  1.26 GB   |    Зарегистрирован:  25 дней   |    .torrent скачан:  174 раза   |   
Раздают:  1  
   
загрузка...
 
Автор Сообщение

Galfimbul

avatar Galfimbul


Монстры на каникулах 3: Море зовёт /Hotel Transylvania 3: Summer Vacation

Год выпуска: 2018
Страна: США
Жанр: мультфильм, фэнтези, комедия, приключения, семейный
Перевод: Дублированный [iTunes]
Субтитры: русские (Forced),(Full),
Продолжительность: 01:37:19
Режиссер: Генндий Тартаковский
В ролях: Адам Сэндлер (Dracula, озвучка), Энди Сэмберг (Johnny, озвучка), Селена Гомес (Mavis, озвучка), Кевин Джеймс (Frank, озвучка), Фрэн Дрешер (Eunice, озвучка), Стив Бушеми (Wayne, озвучка), Молли Шеннон (Wanda, озвучка), Дэвид Спейд (Griffin, озвучка), Кигэн-Майкл Ки (Murray, озвучка), Джим Гэффиган (Van Helsing, озвучка), Кэтрин Хан (Ericka, озвучка), Эшер Блинкофф (Dennis, озвучка)
Описание:
На этот раз Дракула вместе со своими друзьями отправляется в круиз на шикарном лайнере. Развлечения там на любой вкус: от монстробаскетбола и экзотических экскурсий, до лунных ванн. Неожиданно Дракула влюбляется в капитана корабля - загадочную и прекрасную Эрику, и его дочка Мэвис понимает, что поездка может превратиться в кошмар: ведь Эрика хранит ужасный секрет, который ставит под угрозу существование всех монстров!
Рейтинг:
Мировая премьера: 13 июня 2018
MPAA: PG - Рекомендуется присутствие родителей
Качество: WEB-DLRip-AVC
Формат: MKV
Видео: AVC, 1024x554 (1.85:1), 1466 kbps, 23,976 fps, 0,108 bpp
Аудио: русский / AC3 / 5.1 / 48 kHz / 384 kbps / ||
Навигация по главам: есть

General
Unique ID : 218369225386036997529976622951066660974 (0xA448620CF7903EAE80ADEB6BEC96706E)
Complete name : E:Запись с твHotel.Transylvania.3.WEB-DLRip-AVC.by.White Smoke.R.G.Generalfilm.mkv
Format : Matroska
Format version : Version 4 / Version 2
File size : 1.26 GiB
Duration : 1 h 37 min
Overall bit rate : 1 852 kb/s
Movie name : Hotel.Transylvania.3.WEB-DLRip-AVC.by.White Smoke.R.G.Generalfilm.mkv
Encoded date : UTC 2018-09-26 05:59:14
Writing application : mkvmerge v6.8.0 ('Theme for Great Cities') 64bit built on Mar 2 2014 21:34:26
Writing library : libebml v1.3.0 + libmatroska v1.4.1
Cover : Yes
Attachments : cover.png

Video
ID : 1
Format : AVC
Format/Info : Advanced Video Codec
Format profile : [email protected]
Format settings, CABAC : Yes
Format settings, ReFrames : 10 frames
Codec ID : V_MPEG4/ISO/AVC
Duration : 1 h 37 min
Bit rate : 1 466 kb/s
Width : 1 024 pixels
Height : 554 pixels
Display aspect ratio : 1.85:1
Frame rate mode : Constant
Frame rate : 23.976 (24000/1001) FPS
Color space : YUV
Chroma subsampling : 4:2:0
Bit depth : 8 bits
Scan type : Progressive
Bits/(Pixel*Frame) : 0.108
Stream size : 997 MiB (77%)
Writing library : x264 core 148 r2638 7599210
Encoding settings : cabac=1 / ref=10 / deblock=1:-2:-1 / analyse=0x3:0x113 / me=umh / subme=11 / psy=1 / psy_rd=0.00:0.15 / mixed_ref=1 / me_range=32 / chroma_me=1 / trellis=2 / 8x8dct=1 / cqm=0 / deadzone=21,11 / fast_pskip=0 / chroma_qp_offset=-3 / threads=6 / lookahead_threads=1 / sliced_threads=0 / nr=0 / decimate=0 / interlaced=0 / bluray_compat=0 / constrained_intra=0 / bframes=10 / b_pyramid=2 / b_adapt=2 / b_bias=0 / direct=1 / weightb=1 / open_gop=0 / weightp=2 / keyint=240 / keyint_min=24 / scenecut=40 / intra_refresh=0 / rc_lookahead=40 / rc=2pass / mbtree=1 / bitrate=1466 / ratetol=1.0 / qcomp=0.65 / qpmin=0 / qpmax=69 / qpstep=4 / cplxblur=20.0 / qblur=0.5 / vbv_maxrate=50000 / vbv_bufsize=65500 / nal_hrd=none / filler=0 / ip_ratio=1.40 / aq=1:1.00
Language : English
Default : Yes
Forced : No

Audio
ID : 2
Format : AC-3
Format/Info : Audio Coding 3
Mode extension : CM (complete main)
Format settings, Endianness : Big
Codec ID : A_AC3
Duration : 1 h 37 min
Bit rate mode : Constant
Bit rate : 384 kb/s
Channel(s) : 6 channels
Channel positions : Front: L C R, Side: L R, LFE
Sampling rate : 48.0 kHz
Frame rate : 31.250 FPS (1536 spf)
Compression mode : Lossy
Stream size : 267 MiB (21%)
Title : iTunes
Language : Russian
Default : Yes
Forced : Yes

Text #1
ID : 3
Format : UTF-8
Codec ID : S_TEXT/UTF8
Codec ID/Info : UTF-8 Plain Text
Title : Forced
Language : Russian
Default : Yes
Forced : Yes

Text #2
ID : 4
Format : UTF-8
Codec ID : S_TEXT/UTF8
Codec ID/Info : UTF-8 Plain Text
Title : Full
Language : Russian
Default : No
Forced : No

Menu
00:00:00.000 : en:1
00:04:28.935 : en:2
00:09:34.824 : en:3
00:16:02.044 : en:4
00:20:03.075 : en:5
00:24:34.930 : en:6
00:31:12.535 : en:7
00:36:49.205 : en:8
00:44:04.723 : en:9
00:49:57.699 : en:10
00:54:49.740 : en:11
01:00:34.875 : en:12
01:06:12.003 : en:13
01:10:32.262 : en:14
01:13:46.371 : en:15
01:24:56.541 : en:16
Источник http://BlaTor.org

Трекер:  [ 26-Сен-2018 11:00 ]

  

Скачать .torrent

Размер .torrent файла 13 KB


Размер: 1.26 GB
Хэш (hash) релиза: 4cdc7e1d2ed07bde83f5bbb2c4f648e872311422
Подписка на обновления:

Торренты, похожие на Монстры на каникулах 3: Море зовёт Hotel Transylvania 3: Summer Vacation скачать торрент

Форум Название Автор Размер S L Добавлен
Мультфильмы 2016-2018 (Новинки мультфильмов) ·%· Монстры на каникулах 3: Море зовёт / Hotel Transylvania 3: Summer Vacation (2018) UHD BDRemux 2160p от TeamHD | 4K | HDR | iTunes Galfimbul 4092655618238.12 GB 0 0 1538865011

01:30

7-Окт-18

Мультфильмы 2016-2018 (Новинки мультфильмов) ·%· Монстры на каникулах 3: Море зовёт / Hotel Transylvania 3: Summer Vacation (2018) HDRip от Kaztorrents | КПК | iTunes Galfimbul 388327974370 MB 0 0 1538113819

08:50

28-Сен-18

Мультфильмы 2016-2018 (Новинки мультфильмов) ·%· Монстры на каникулах 3: Море зовёт / Hotel Transylvania 3: Summer Vacation (2018) BDRip от ExKinoRay | iTunes Galfimbul 15220080861.42 GB 0 0 1538083219

00:20

28-Сен-18

Мультфильмы 2016-2018 (Новинки мультфильмов) ·%· Монстры на каникулах 3: Море зовёт / Hotel Transylvania 3: Summer Vacation (2018) BDRip от MegaPeer | iTunes Galfimbul 783843030748 MB 0 0 1538063502

18:51

27-Сен-18

Мультфильмы 2016-2018 (Новинки мультфильмов) ·%· Монстры на каникулах 3: Море зовёт / Hotel Transylvania 3: Summer Vacation (2018) BDRemux 1080p | iTunes Galfimbul 2025326808018.86 GB 0 0 1538035824

11:10

27-Сен-18

Мультфильмы 2016-2018 (Новинки мультфильмов) ·%· Монстры на каникулах 3: Море зовёт / Hotel Transylvania 3: Summer Vacation (2018) WEB-DLRip-AVC от ExKinoRay | iTunes Galfimbul 20562707791.92 GB 0 0 1537849821

07:30

25-Сен-18

Еще никто не оставлял запись к записи скачать торрент Монстры на каникулах 3: Море зовёт Hotel Transylvania 3: Summer Vacation . Будь первым!

!Обратная связь