Скачать через торрент Черновик Фильм бесплатно в хорошем качестве torrent

Скачивайте на UnionPeer.org фильмы через торрент без регистрации. Новинки кино в хорошем качестве через торрент. На UnionPeer.org можно скачать через торрент фильмы 2014 и 2015 годов. Самые новые фильмы.

Скачать торрент Черновик бесплатно через .torrent фильм мультфильм сериал

Статистика раздачи
Размер:  4.19 GB   |    Зарегистрирован:  2 месяца 18 дней   |    .torrent скачан:  200 раз   |   
Раздают:  1  
   
загрузка...
 
Автор Сообщение

Galfimbul

avatar Galfimbul


Черновик

Страна: Россия
Студия: Кинокомпания "Новые люди"
Жанр: Фантастика
Год выпуска: 2018
Продолжительность: 01:55:33

Перевод: Не требуется
Субтитры: нет
Оригинальная аудиодорожка: русский

Режиссер: Сергей Мокрицкий

В ролях: Никита Волков, Евгений Ткачук, Ольга Боровская, Ирина Горбачёва, Юлия Пересильд, Северия Янушаускайте, Евгений Цыганов, Андрей Мерзликин, Никита Тарасов, Ирина Хакамада, Ирина Демидкина, Александр Плющев, Ёла Санько, Аня Пересильд, Дарья Слонская (Юрченко), Яна Чигир

Описание: Экранизация одноименного романа Сергея Лукьяненко. Молодой москвич Кирилл — талантливый дизайнер компьютерных игр. В один прекрасный день он оказывается напрочь стертым из памяти всех, кого он знал и любил. Кирилл узнает, что выбран для важной и таинственной миссии. Его предназначение — стать таможенником между параллельными мирами, коих во Вселенной десятки. Сможет ли Кирилл разгадать тайну этих таинственных миров и того, кто и зачем ими управляет?
| IMDb | КиноПоиск | Cэмпл |
Тип релиза: WEB-DL 1080p
Контейнер: MKV

Видео: MPEG4 Video (H264), Display AR 2.40:1, 1920x804, 24.000 fps, ~5000 Кbps
Аудио: АС3, 2 ch, 192 kb/s, 48.0 kHz, 16 bits
Формат : MatroskaВерсия формата : Version 4 / Version 2Размер файла : 4.19 GiBПродолжительность : 1 h 55 minОбщий поток : 5 193 kb/sНазвание фильма : Chernovik.2018.WEB-DL.(1080p).GettyДата кодирования : UTC 2018-07-27 10:52:31Программа кодирования : mkvmerge v7.8.0 ('River Man') 32bit built on Mar 27 2015 16:18:02Библиотека кодирования : libebml v1.3.1 + libmatroska v1.4.2FileExtension_Invalid : mkv mk3d mka mks

VideoИдентификатор : 1Формат : AVCФормат/Информация : Advanced Video CodecПрофиль формата : [email protected]Настройки формата : CABAC / 3 Ref FramesПараметр CABAC формата : YesПараметр RefFrames формата : 3 framesИдентификатор кодека : V_MPEG4/ISO/AVCПродолжительность : 1 h 55 minБитрейт : 5 000 kb/sШирина : 1 920 pixelsВысота : 804 pixelsСоотношение сторон : 2.40:1Режим частоты кадров : ConstantЧастота кадров : 24.000 FPSЦветовое пространство : YUVСубдискретизация насыщенности : 4:2:0Битовая глубина : 8 bitsТип развёртки : ProgressiveБит/(Пиксели*Кадры) : 0.135Размер потока : 4.04 GiB (96%)Default : YesForced : NoЦветовой диапазон : LimitedОсновные цвета : BT.709Характеристики трансфера : BT.709Коэффициенты матрицы : BT.709

AudioИдентификатор : 2Формат : AC-3Формат/Информация : Audio Coding 3Идентификатор кодека : A_AC3Продолжительность : 1 h 55 minВид битрейта : ConstantБитрейт : 192 kb/sКаналы : 2 channelsРасположение каналов : Front: L RЧастота : 48.0 kHzЧастота кадров : 31.250 FPS (1536 SPF)Битовая глубина : 16 bitsМетод сжатия : LossyРазмер потока : 159 MiB (4%)ServiceKind/String : Complete MainDefault : YesForced : No


Трекер:  [ 28-Июл-2018 07:01 ]

  

Скачать .torrent

Размер .torrent файла 21 KB


Размер: 4.19 GB
Хэш (hash) релиза: 66e9e107ad838456715f3a946856518ebb3211c4
Подписка на обновления:

Торренты, похожие на Черновик скачать торрент

Форум Название Автор Размер S L Добавлен
Российские фильмы 2016-2018 (Новинки русского кино) ·%· Черновик (2018) HDRip от Scarabey | Лицензия Galfimbul 15533445121.45 GB 0 0 1537553666

21:14

21-Сен-18

Российские фильмы 2016-2018 (Новинки русского кино) ·%· Черновик (2018) HDRip от Portablius | GER Transfer | Лицензия Galfimbul 782833664747 MB 0 0 1537438369

13:12

20-Сен-18

Российские фильмы 2016-2018 (Новинки русского кино) ·%· Черновик (2018) BDRip-AVC от HELLYWOOD | GER Transfer | Лицензия Galfimbul 23368136832.18 GB 0 0 1537413019

06:10

20-Сен-18

Российские фильмы 2016-2018 (Новинки русского кино) ·%· Черновик (2018) BDRip 720p | GER Transfer | Лицензия Galfimbul 68343156606.36 GB 0 0 1537281241

17:34

18-Сен-18

Российские фильмы 2016-2018 (Новинки русского кино) ·%· Черновик (2018) Blu-ray 1080p | GER Transfer | Лицензия Galfimbul 4157394886338.72 GB 0 0 1537273894

15:31

18-Сен-18

Российские фильмы 2016-2018 (Новинки русского кино) ·%· Черновик (2018) BDRip 1080p от OlLanDGroup | GER Transfer | Лицензия Galfimbul 107087036139.97 GB 0 0 1537247416

08:10

18-Сен-18

Российские фильмы 2016-2018 (Новинки русского кино) ·%· Черновик (2018) BDRemux 1080p | Лицензия Galfimbul 3395815615731.63 GB 0 0 1537226445

02:20

18-Сен-18

Российские фильмы 2016-2018 (Новинки русского кино) ·%· Черновик (2018) WEB-DLRip от Generalfilm | КПК Galfimbul 460814592439 MB 0 0 1532802615

21:30

28-Июл-18

Российские фильмы до 2016 ·%· Черновик (Сергей Мокрицкий) [2018, фантастика, WEB-DLRip] Galfimbul 15623065601.46 GB 0 0 1532771655

12:54

28-Июл-18

Российские фильмы 2016-2018 (Новинки русского кино) ·%· Черновик (2018) WEB-DLRip-AVC от Files-x Galfimbul 15612109701.45 GB 0 0 1532758814

09:20

28-Июл-18

Российские фильмы 2016-2018 (Новинки русского кино) ·%· Черновик (2018) WEB-DLRip-AVC от GeneralFilm Galfimbul 15773380391.47 GB 0 0 1532744410

05:20

28-Июл-18

Российские фильмы 2016-2018 (Новинки русского кино) ·%· Черновик (2018) WEB-DLRip-AVC от ExKinoRay Galfimbul 13899565931.29 GB 0 0 1532741462

04:31

28-Июл-18

Российские фильмы 2016-2018 (Новинки русского кино) ·%· Черновик (2018) WEB-DLRip от GeneralFilm Galfimbul 15623065601.46 GB 0 0 1532721008

22:50

27-Июл-18

Российские фильмы 2016-2018 (Новинки русского кино) ·%· Черновик (2018) WEB-DLRip от GeneralFilm Galfimbul 782737408746 MB 0 0 1532712080

20:21

27-Июл-18

Российские фильмы 2016-2018 (Новинки русского кино) ·%· Черновик (2018) WEB-DL 1080p Galfimbul 45007228734.19 GB 0 0 1532703613

18:00

27-Июл-18

Еще никто не оставлял запись к записи скачать торрент Черновик . Будь первым!

!Обратная связь